Гвидо-суперзвезда: Восхождение Гвидо / Guido Superstar: The Rise of Guido (Сильвио Поллио / Silvio Pollio) [2010, Канада, авантюрная комедия, DVB] DVO (Студия Акцент) + Original (Eng) 

Цитировать
Гвидо-суперзвезда: Восхождение Гвидо
Guido Superstar: The Rise of Guido- Страна: Канада
Жанр: авантюрная комедия
Год выпуска: 2010
Продолжительность: 01:22:55
Перевод: Профессиональный (двухголосый закадровый) Студия "Акцент" по заказу Kino Polska
Субтитры: нет
Оригинальная аудиодорожка: английский
Режиссер: Сильвио Поллио / Silvio Pollio
В ролях: Сильвио Поллио / Silvio Pollio (Guido), Джон Кассини / John Cassini (Mr. Blanco), Николас Ли / Nicholas Lea (Mr. Other Guy), Терри Чен / Terry Chen (Andrew Cho)
Описание: В этой забавной комедии-боевике итальянский эммигрант попадает в мир "королей наркобизнеса", дорогих автомобилей и секретных агентов. Гвидо теряет работу в Disco Valet Company за чрезмерный героизм и должен играть роль сицилийского гангстера для ФБР, чтобы проникнуть в структуры сильной азиатской мафиозной группировки. Все идет наперекосяк и оборачивается к худшему. Гвидо должен возместить убытки до того, как его раскроют и убьют или, что еще хуже, вышлют из страны.
Доп. информация: Intelsat 15 (85.0°E) Filmbox DVB-S
Участник Vancouver International Film Festival 2010.

Качество видео: DVB
Формат видео: MKV
Видео: MPEG Video 2, [email protected] (16:9), 25 fps, ~2523 kbps avg, 0.243 bit/pixel
Аудио 1: MPEG Audio 2, 2 ch, 48 kHz, 128 kbps - русский
Аудио 2: MPEG Audio 2, 2 ch, 48 kHz, 128 kbps - английский

MediaInfo

General
Unique ID : 237308501321791790720551176299099074159 (0xB287F472B5A8B60A84EBA9B2E66A2E6F)
Complete name : [apreder]Guido_Superstar_The_Rise_of_Guido(2010)DVB.mkv
Format : Matroska
Format version : Version 2
File size : 1.61 GiB
Duration : 1 h 22 min
Overall bit rate mode : Variable
Overall bit rate : 2 785 kb/s
Movie name : Guido Superstar: The Rise of Guido
Released date : 2010-10-07
Encoded date : UTC 2017-09-01 12:10:41
Writing application : mkvmerge v15.0.0 ('Duel with the Devil') 64-bit
Writing library : libebml v1.3.5 + libmatroska v1.4.5
Cover : Yes
Attachments : cover.jpg / small_cover.jpg
ACTOR : Silvio Pollio, John Cassini, Nicholas Lea
DIRECTOR : Silvio Pollio
GENRE : Comedy
IMDB : tt1584701
KEYWORDS : rutracker.org
LAW_RATING : 16+
Video
ID : 1
Format : MPEG Video
Format version : Version 2
Format profile : [email protected]
Format settings, BVOP : Yes
Format settings, Matrix : Custom
Format settings, GOP : M=4, N=12
Format settings, picture structure : Frame
Codec ID : V_MPEG2
Codec ID/Info : MPEG 1 or 2 Video
Duration : 1 h 22 min
Bit rate mode : Variable
Bit rate : 2 523 kb/s
Maximum bit rate : 10 000 kb/s
Width : 720 pixels
Height : 576 pixels
Display aspect ratio : 16:9
Frame rate mode : Constant
Frame rate : 25.000 FPS
Standard : PAL
Color space : YUV
Chroma subsampling : 4:2:0
Bit depth : 8 bits
Scan type : Interlaced
Scan order : Top Field First
Compression mode : Lossy
Bits/(Pixel*Frame) : 0.243
Time code of first frame : 03:14:34:19
Time code source : Group of pictures header
GOP, Open/Closed : Open
Stream size : 1.46 GiB (91%)
Default : Yes
Forced : No
Audio #1
ID : 2
Format : MPEG Audio
Format version : Version 1
Format profile : Layer 2
Codec ID : A_MPEG/L2
Codec ID/Hint : MP2
Duration : 1 h 22 min
Bit rate mode : Constant
Bit rate : 128 kb/s
Channel(s) : 2 channels
Sampling rate : 48.0 kHz
Frame rate : 41.667 FPS (1152 SPF)
Compression mode : Lossy
Stream size : 75.9 MiB (5%)
Language : Russian
Default : Yes
Forced : No
Audio #2
ID : 3
Format : MPEG Audio
Format version : Version 1
Format profile : Layer 2
Codec ID : A_MPEG/L2
Codec ID/Hint : MP2
Duration : 1 h 22 min
Bit rate mode : Constant
Bit rate : 128 kb/s
Channel(s) : 2 channels
Sampling rate : 48.0 kHz
Frame rate : 41.667 FPS (1152 SPF)
Compression mode : Lossy
Stream size : 75.9 MiB (5%)
Language : English
Default : No
Forced : No

Скриншот c названием фильма

Скриншоты


Резервные скриншоты


- [3'852]
Вы не можете начинать темы
Вы не можете отвечать на сообщения
Вы не можете редактировать свои сообщения
Вы не можете удалять свои сообщения
Вы не можете голосовать в опросах
Вы не можете прикреплять файлы к сообщениям
Вы можете скачивать файлы
!ВНИМАНИЕ!

Сайт не предоставляет электронные версии произведений, а занимается лишь коллекционированием и каталогизацией ссылок, присылаемых и публикуемых на форуме нашими читателями. Если вы являетесь правообладателем какого-либо представленного материала и не желаете, чтобы ссылка на него находилась в нашем каталоге, свяжитесь с нами, и мы незамедлительно удалим ее. Файлы для обмена на трекере предоставлены пользователями сайта, и администрация не несет ответственности за их содержание. Просьба не заливать файлы, защищенные авторскими правами, а также файлы нелегального содержания!

Искали программы, игры, дополнения, музыка mp3, аниме, аудио книги, журналы? Добро пожаловать на свободный торрент трекер Torrents, у нас можно скачать бесплатно, без смс и регистрации и прочих ограничений лучшие, отборные сборки программ, игр. Скачать торрентом не составит труда даже не опытному пользователю. Раздачи ежедневно обновляются, только лучшие и качественные раздачи, подробные описания и скриншоты. Огромная коллекция программ для работы со звуком, графикой, дизайном, а так же множество плагинов и инструментов к ним с подробной инструкцией и рекомендациями. Прошивки для навигаторов, карты. Разнообразные игры, для Windows, Linux. В коллекцие есть и старые игры любых жанров, Rpg, Action, Shooter, strategy Множество дополнений, модификаций, сценариев для популярных игр в жанре экш, рпг, гонки, стратегии, логические игры. Множество аддонов и сценариев для Microsoft Flight Simulator Большая коллекция книг, учебников. Если нет возможности купить печатное издание - смело скачивайте цифровую версию книги или, быть может, журнала. Не любите читать - можно загрузить бесплатно аудикнигу. Для веб дизайнеров и программистов так же найдется множество специализированного софта, таких как: редакторы с подсветкой, среды программирования, компоненты, системы управления базами данных, разнообразные скрипты и шаблоны. Не так давно у нас появился материал для автолюбителей и владельцев мото - оригинальные и неоригинальные каталоги запчастей, книги и журналы по ремонту и обслуживанию, видеоуроки, статьи по чип тюнингу, прошивкам. Процедура получения контента элементарная, достаточно просто скачать торрент файл и добавить его в загрузку в вашем торрент клиенте. Если у вас нет специального торрент клиента, вы можете его скачать у нас.